osu file format v14

[General]
AudioFilename: ratsyks.mp3
AudioLeadIn: 1500
PreviewTime: 58443
Countdown: 0
SampleSet: Normal
StackLeniency: 0.7
Mode: 1
LetterboxInBreaks: 0
WidescreenStoryboard: 1

[Editor]
DistanceSpacing: 1
BeatDivisor: 1
GridSize: 32
TimelineZoom: 3.499999

[Metadata]
Title:Kakushinteki*Metamaruphose!
TitleUnicode:かくしん的☆めたまるふぉ~ぜっ!
Artist:Doma Umaru [CV.Tanaka Aimi]
ArtistUnicode:土間うまる [CV.田中あいみ]
Creator:Crystal
Version:Gezo's Oni
Source:干物妹!うまるちゃん
Tags:Himouto! Umaruchan opening anime tv size Skystar Amamiya Yuko wcx19911123 Fycho Kencho Kawaiwkyik Rizia victorica_db Flask CLSW Nardoxyribonucleic _Gezo_
BeatmapID:779319
BeatmapSetID:332623

[Difficulty]
HPDrainRate:7
CircleSize:2
OverallDifficulty:6
ApproachRate:10
SliderMultiplier:0.85
SliderTickRate:1

[Events]
//Background and Video events
0,0,"umaruchan1.jpg",0,-90
//Break Periods
//Storyboard Layer 0 (Background)
//Storyboard Layer 1 (Fail)
//Storyboard Layer 2 (Pass)
//Storyboard Layer 3 (Foreground)
//Storyboard Sound Samples

[TimingPoints]
-69,215.827338129496,8,1,0,100,1,0
8348,-125,8,1,0,100,0,0
15470,-111.111111111111,8,1,0,100,0,0
20650,-100,8,1,0,100,0,0
27556,-111.111111111111,8,1,0,100,0,0
41369,301.507537688442,6,1,0,100,1,0
41369,-90.9090909090909,6,1,0,100,0,0
51321,215.827338129496,8,1,0,100,1,1
51321,-126.998629511587,8,1,0,100,0,1
51334,-117.647058823529,8,1,0,100,0,1
52184,215.827338129496,8,1,0,100,1,0
59090,-83.3333333333333,8,1,0,100,0,1
76356,-83.3333333333333,8,1,0,100,0,0
77233,-100,8,1,0,100,0,0

[Colours]
Combo1 : 255,0,128
Combo2 : 255,128,192
Combo3 : 255,128,64
Combo4 : 128,255,255

[HitObjects]
256,192,578,5,0,0:0:0:0:
256,192,650,1,0,0:0:0:0:
256,192,722,1,0,0:0:0:0:
256,192,794,1,8,0:0:0:0:
256,192,1010,1,8,0:0:0:0:
256,192,1082,1,8,0:0:0:0:
256,192,1154,1,8,0:0:0:0:
256,192,1225,1,0,0:0:0:0:
256,192,1441,1,8,0:0:0:0:
256,192,1549,1,8,0:0:0:0:
256,192,1657,1,0,0:0:0:0:
256,192,1873,1,8,0:0:0:0:
256,192,1981,1,8,0:0:0:0:
256,192,2089,1,0,0:0:0:0:
256,192,2197,1,0,0:0:0:0:
256,192,2305,1,8,0:0:0:0:
256,192,2520,1,0,0:0:0:0:
256,192,2736,1,8,0:0:0:0:
256,192,2844,1,0,0:0:0:0:
256,192,2952,1,0,0:0:0:0:
256,192,3060,1,0,0:0:0:0:
256,192,3168,1,8,0:0:0:0:
256,192,3384,1,0,0:0:0:0:
256,192,3600,1,8,0:0:0:0:
256,192,3707,1,8,0:0:0:0:
256,192,3815,1,0,0:0:0:0:
256,192,4031,1,8,0:0:0:0:
256,192,4247,1,4,0:0:0:0:
256,192,4463,1,12,0:0:0:0:
256,192,4679,1,12,0:0:0:0:
256,192,5110,1,0,0:0:0:0:
256,192,5326,1,8,0:0:0:0:
256,192,5434,1,0,0:0:0:0:
256,192,5542,1,0,0:0:0:0:
256,192,5650,1,8,0:0:0:0:
256,192,5758,1,8,0:0:0:0:
256,192,5974,1,0,0:0:0:0:
256,192,6189,1,8,0:0:0:0:
256,192,6297,1,8,0:0:0:0:
256,192,6405,1,0,0:0:0:0:
256,192,6513,1,8,0:0:0:0:
256,192,6621,1,8,0:0:0:0:
256,192,6837,1,0,0:0:0:0:
256,192,7053,1,8,0:0:0:0:
256,192,7161,1,8,0:0:0:0:
256,192,7269,1,0,0:0:0:0:
256,192,7484,1,8,0:0:0:0:
256,192,7700,1,0,0:0:0:0:
256,192,7916,1,0,0:0:0:0:
256,192,8132,1,0,0:0:0:0:
256,192,8564,1,4,0:0:0:0:
256,192,9427,1,4,0:0:0:0:
256,192,10290,1,4,0:0:0:0:
256,192,11154,1,4,0:0:0:0:
256,192,11585,1,0,0:0:0:0:
256,192,12017,1,4,0:0:0:0:
256,192,12664,1,0,0:0:0:0:
256,192,12880,1,4,0:0:0:0:
256,192,13743,1,4,0:0:0:0:
256,192,14607,1,8,0:0:0:0:
256,192,14715,1,8,0:0:0:0:
256,192,15038,1,8,0:0:0:0:
256,192,15146,1,8,0:0:0:0:
256,192,15470,1,0,0:0:0:0:
256,192,15686,1,8,0:0:0:0:
256,192,15902,1,0,0:0:0:0:
256,192,16010,1,0,0:0:0:0:
256,192,16118,1,8,0:0:0:0:
256,192,16333,1,0,0:0:0:0:
256,192,16549,1,8,0:0:0:0:
256,192,16765,1,0,0:0:0:0:
256,192,16873,1,8,0:0:0:0:
256,192,16981,1,8,0:0:0:0:
256,192,17197,1,8,0:0:0:0:
256,192,17520,1,8,0:0:0:0:
256,192,17628,1,0,0:0:0:0:
256,192,17844,1,8,0:0:0:0:
256,192,18060,1,0,0:0:0:0:
256,192,18168,1,8,0:0:0:0:
256,192,18276,1,0,0:0:0:0:
256,192,18492,1,8,0:0:0:0:
256,192,18707,1,0,0:0:0:0:
256,192,18923,1,8,0:0:0:0:
256,192,19139,1,0,0:0:0:0:
256,192,19247,1,0,0:0:0:0:
256,192,19355,1,0,0:0:0:0:
256,192,19571,1,0,0:0:0:0:
256,192,19787,1,8,0:0:0:0:
256,192,20218,1,12,0:0:0:0:
256,192,20650,1,8,0:0:0:0:
256,192,20866,1,0,0:0:0:0:
256,192,20974,1,0,0:0:0:0:
256,192,21082,1,8,0:0:0:0:
256,192,21297,1,0,0:0:0:0:
256,192,21513,1,8,0:0:0:0:
256,192,21621,1,8,0:0:0:0:
256,192,21729,1,0,0:0:0:0:
256,192,21837,1,0,0:0:0:0:
256,192,21945,1,8,0:0:0:0:
256,192,22161,1,0,0:0:0:0:
256,192,22377,1,8,0:0:0:0:
256,192,22592,1,0,0:0:0:0:
256,192,22700,1,8,0:0:0:0:
256,192,22808,1,8,0:0:0:0:
256,192,23024,1,0,0:0:0:0:
256,192,23132,1,0,0:0:0:0:
256,192,23240,1,8,0:0:0:0:
256,192,23348,1,8,0:0:0:0:
256,192,23456,1,0,0:0:0:0:
256,192,23564,1,8,0:0:0:0:
256,192,23672,1,8,0:0:0:0:
256,192,23887,1,0,0:0:0:0:
256,192,24103,1,8,0:0:0:0:
256,192,24319,1,0,0:0:0:0:
256,192,24427,1,0,0:0:0:0:
256,192,24535,1,8,0:0:0:0:
256,192,24751,1,0,0:0:0:0:
256,192,24859,1,0,0:0:0:0:
256,192,24966,1,8,0:0:0:0:
256,192,25074,1,0,0:0:0:0:
256,192,25182,1,0,0:0:0:0:
256,192,25290,1,8,0:0:0:0:
256,192,25398,1,8,0:0:0:0:
256,192,25614,1,0,0:0:0:0:
256,192,25830,1,8,0:0:0:0:
256,192,26046,1,0,0:0:0:0:
256,192,26154,1,8,0:0:0:0:
256,192,26261,1,0,0:0:0:0:
256,192,26477,1,0,0:0:0:0:
256,192,26693,1,12,0:0:0:0:
256,192,27556,1,0,0:0:0:0:
256,192,27880,1,0,0:0:0:0:
256,192,27988,1,8,0:0:0:0:
256,192,28312,1,0,0:0:0:0:
256,192,28528,1,0,0:0:0:0:
256,192,28743,1,0,0:0:0:0:
256,192,28851,1,8,0:0:0:0:
256,192,29067,1,0,0:0:0:0:
256,192,29283,1,0,0:0:0:0:
256,192,29607,1,0,0:0:0:0:
256,192,29715,1,8,0:0:0:0:
256,192,30038,1,0,0:0:0:0:
256,192,30254,1,0,0:0:0:0:
256,192,30578,1,8,0:0:0:0:
256,192,31010,1,0,0:0:0:0:
256,192,31333,1,0,0:0:0:0:
256,192,31441,1,8,0:0:0:0:
256,192,31657,1,8,0:0:0:0:
256,192,31765,1,0,0:0:0:0:
256,192,31981,1,0,0:0:0:0:
256,192,32197,1,0,0:0:0:0:
256,192,32305,1,8,0:0:0:0:
256,192,32520,1,0,0:0:0:0:
256,192,32736,1,0,0:0:0:0:
256,192,33060,1,0,0:0:0:0:
256,192,33168,1,8,0:0:0:0:
256,192,33384,1,8,0:0:0:0:
256,192,33492,1,0,0:0:0:0:
256,192,33600,1,0,0:0:0:0:
256,192,33707,1,8,0:0:0:0:
256,192,33923,1,0,0:0:0:0:
256,192,34031,1,8,0:0:0:0:
256,192,34463,1,0,0:0:0:0:
256,192,34787,1,0,0:0:0:0:
256,192,34895,1,8,0:0:0:0:
256,192,35219,1,0,0:0:0:0:
256,192,35435,1,0,0:0:0:0:
256,192,35650,1,0,0:0:0:0:
256,192,35758,1,8,0:0:0:0:
256,192,35974,1,0,0:0:0:0:
256,192,36190,1,0,0:0:0:0:
256,192,36514,1,0,0:0:0:0:
256,192,36622,1,8,0:0:0:0:
256,192,36945,1,0,0:0:0:0:
256,192,37161,1,0,0:0:0:0:
256,192,37377,1,0,0:0:0:0:
256,192,37485,1,8,0:0:0:0:
256,192,37700,1,0,0:0:0:0:
256,192,37917,1,0,0:0:0:0:
256,192,38240,1,0,0:0:0:0:
256,192,38348,1,8,0:0:0:0:
256,192,38564,1,8,0:0:0:0:
256,192,38672,1,0,0:0:0:0:
256,192,38888,1,0,0:0:0:0:
256,192,39104,1,0,0:0:0:0:
256,192,39212,1,8,0:0:0:0:
256,192,39427,1,0,0:0:0:0:
256,192,39643,1,0,0:0:0:0:
256,192,40075,1,8,0:0:0:0:
256,192,40507,1,0,0:0:0:0:
256,192,40938,1,8,0:0:0:0:
256,192,40992,1,8,0:0:0:0:
256,192,41046,1,8,0:0:0:0:
256,192,41369,1,0,0:0:0:0:
256,192,41670,1,0,0:0:0:0:
256,192,41972,1,8,0:0:0:0:
256,192,42273,1,0,0:0:0:0:
256,192,42424,1,0,0:0:0:0:
256,192,42575,1,0,0:0:0:0:
256,192,42876,1,0,0:0:0:0:
256,192,43178,1,8,0:0:0:0:
256,192,43479,1,8,0:0:0:0:
256,192,43630,1,8,0:0:0:0:
256,192,43781,1,0,0:0:0:0:
256,192,44082,1,8,0:0:0:0:
256,192,44685,1,0,0:0:0:0:
256,192,44987,1,8,0:0:0:0:
256,192,45288,1,0,0:0:0:0:
256,192,45439,1,0,0:0:0:0:
256,192,45590,1,0,0:0:0:0:
256,192,45891,1,8,0:0:0:0:
256,192,46193,1,0,0:0:0:0:
256,192,46494,1,0,0:0:0:0:
256,192,46796,1,8,0:0:0:0:
256,192,47097,1,8,0:0:0:0:
256,192,47248,1,8,0:0:0:0:
256,192,47399,1,0,0:0:0:0:
256,192,47549,1,0,0:0:0:0:
256,192,47700,1,8,0:0:0:0:
256,192,48303,1,0,0:0:0:0:
256,192,48605,1,8,0:0:0:0:
256,192,48906,1,0,0:0:0:0:
256,192,49057,1,0,0:0:0:0:
256,192,49208,1,0,0:0:0:0:
256,192,49509,1,8,0:0:0:0:
256,192,49811,1,8,0:0:0:0:
256,192,49961,1,8,0:0:0:0:
256,192,50112,1,0,0:0:0:0:
256,192,50414,1,8,0:0:0:0:
256,192,50715,1,0,0:0:0:0:
256,192,51017,1,0,0:0:0:0:
256,192,51321,1,8,0:0:0:0:
256,192,51752,1,4,0:0:0:0:
256,192,52184,1,4,0:0:0:0:
256,192,52400,1,8,0:0:0:0:
256,192,52615,1,0,0:0:0:0:
256,192,52723,1,0,0:0:0:0:
256,192,52831,1,8,0:0:0:0:
256,192,53047,1,0,0:0:0:0:
256,192,53155,1,0,0:0:0:0:
256,192,53263,1,8,0:0:0:0:
256,192,53371,1,0,0:0:0:0:
256,192,53587,1,0,0:0:0:0:
256,192,53695,1,8,0:0:0:0:
256,192,53910,1,0,0:0:0:0:
256,192,54126,1,8,0:0:0:0:
256,192,54234,1,8,0:0:0:0:
256,192,54342,1,0,0:0:0:0:
256,192,54558,1,8,0:0:0:0:
256,192,54774,1,0,0:0:0:0:
256,192,54882,1,8,0:0:0:0:
256,192,55097,1,8,0:0:0:0:
256,192,55205,1,0,0:0:0:0:
256,192,55421,1,8,0:0:0:0:
256,192,55637,1,0,0:0:0:0:
256,192,55853,1,0,0:0:0:0:
256,192,55961,1,0,0:0:0:0:
256,192,56069,1,8,0:0:0:0:
256,192,56177,1,8,0:0:0:0:
256,192,56285,1,0,0:0:0:0:
256,192,56500,1,8,0:0:0:0:
256,192,56716,1,0,0:0:0:0:
256,192,56824,1,0,0:0:0:0:
256,192,56932,1,8,0:0:0:0:
256,192,57148,1,8,0:0:0:0:
256,192,57364,1,0,0:0:0:0:
256,192,57579,1,12,0:0:0:0:
256,192,57795,1,12,0:0:0:0:
256,192,58011,1,12,0:0:0:0:
256,192,58227,1,12,0:0:0:0:
256,192,59090,1,4,0:0:0:0:
256,192,59306,1,8,0:0:0:0:
256,192,59414,1,8,0:0:0:0:
256,192,59522,1,0,0:0:0:0:
256,192,59738,1,8,0:0:0:0:
256,192,59954,1,0,0:0:0:0:
256,192,60062,1,8,0:0:0:0:
256,192,60169,1,0,0:0:0:0:
256,192,60277,1,8,0:0:0:0:
256,192,60385,1,0,0:0:0:0:
256,192,60601,1,8,0:0:0:0:
256,192,60817,1,0,0:0:0:0:
256,192,60925,1,8,0:0:0:0:
256,192,61141,1,8,0:0:0:0:
256,192,61249,1,8,0:0:0:0:
256,192,61356,1,0,0:0:0:0:
256,192,61464,1,8,0:0:0:0:
256,192,61680,1,0,0:0:0:0:
256,192,61896,1,8,0:0:0:0:
256,192,62004,1,8,0:0:0:0:
256,192,62112,1,0,0:0:0:0:
256,192,62328,1,8,0:0:0:0:
256,192,62544,1,0,0:0:0:0:
256,192,62759,1,12,0:0:0:0:
256,192,62975,1,0,0:0:0:0:
256,192,63083,1,0,0:0:0:0:
256,192,63191,1,8,0:0:0:0:
256,192,63407,1,0,0:0:0:0:
256,192,63623,1,12,0:0:0:0:
256,192,63838,1,0,0:0:0:0:
256,192,63946,1,0,0:0:0:0:
256,192,64054,1,8,0:0:0:0:
256,192,64270,1,8,0:0:0:0:
256,192,64486,1,0,0:0:0:0:
256,192,64594,1,8,0:0:0:0:
256,192,64702,1,0,0:0:0:0:
256,192,64918,1,8,0:0:0:0:
256,192,65133,1,0,0:0:0:0:
256,192,65241,1,8,0:0:0:0:
256,192,65457,1,8,0:0:0:0:
256,192,65565,1,0,0:0:0:0:
256,192,65673,1,0,0:0:0:0:
256,192,65781,1,8,0:0:0:0:
256,192,65889,1,8,0:0:0:0:
256,192,65997,1,0,0:0:0:0:
256,192,66213,1,8,0:0:0:0:
256,192,66320,1,8,0:0:0:0:
256,192,66428,1,0,0:0:0:0:
256,192,66644,1,8,0:0:0:0:
256,192,66860,1,0,0:0:0:0:
256,192,67076,1,0,0:0:0:0:
256,192,67184,1,0,0:0:0:0:
256,192,67292,1,8,0:0:0:0:
256,192,67508,1,0,0:0:0:0:
256,192,67723,1,8,0:0:0:0:
256,192,67831,1,0,0:0:0:0:
256,192,68047,1,0,0:0:0:0:
256,192,68155,1,8,0:0:0:0:
256,192,68371,1,0,0:0:0:0:
256,192,68587,1,8,0:0:0:0:
256,192,68695,1,8,0:0:0:0:
256,192,68803,1,0,0:0:0:0:
256,192,68910,1,8,0:0:0:0:
256,192,69018,1,0,0:0:0:0:
256,192,69234,1,8,0:0:0:0:
256,192,69450,1,0,0:0:0:0:
256,192,69666,1,12,0:0:0:0:
256,192,69882,1,0,0:0:0:0:
256,192,69990,1,0,0:0:0:0:
256,192,70097,1,8,0:0:0:0:
256,192,70313,1,0,0:0:0:0:
256,192,70529,1,12,0:0:0:0:
256,192,70745,1,0,0:0:0:0:
256,192,70853,1,0,0:0:0:0:
256,192,70961,1,8,0:0:0:0:
256,192,71177,1,8,0:0:0:0:
256,192,71392,1,0,0:0:0:0:
256,192,71500,1,8,0:0:0:0:
256,192,71608,1,0,0:0:0:0:
256,192,71824,1,8,0:0:0:0:
256,192,72040,1,0,0:0:0:0:
256,192,72148,1,8,0:0:0:0:
256,192,72364,1,0,0:0:0:0:
256,192,72472,1,8,0:0:0:0:
256,192,72579,1,8,0:0:0:0:
256,192,72687,1,0,0:0:0:0:
256,192,72903,1,0,0:0:0:0:
256,192,73119,1,8,0:0:0:0:
256,192,73227,1,8,0:0:0:0:
256,192,73335,1,0,0:0:0:0:
256,192,73551,1,8,0:0:0:0:
256,192,73767,1,0,0:0:0:0:
256,192,73982,1,8,0:0:0:0:
256,192,74090,1,8,0:0:0:0:
256,192,74198,1,0,0:0:0:0:
256,192,74414,1,8,0:0:0:0:
256,192,74630,1,0,0:0:0:0:
256,192,74738,1,8,0:0:0:0:
256,192,74846,1,0,0:0:0:0:
256,192,74954,1,8,0:0:0:0:
256,192,75062,1,0,0:0:0:0:
256,192,75277,1,8,0:0:0:0:
256,192,75493,1,0,0:0:0:0:
256,192,75601,1,8,0:0:0:0:
256,192,75709,1,0,0:0:0:0:
256,192,75817,1,8,0:0:0:0:
256,192,75925,1,0,0:0:0:0:
256,192,76141,1,8,0:0:0:0:
256,192,76356,1,4,0:0:0:0:
256,192,77220,1,4,0:0:0:0:
256,192,78083,1,4,0:0:0:0:
256,192,78299,1,0,0:0:0:0:
256,192,78407,1,8,0:0:0:0:
256,192,78515,1,0,0:0:0:0:
256,192,78623,1,0,0:0:0:0:
256,192,78731,1,8,0:0:0:0:
256,192,78946,1,0,0:0:0:0:
256,192,79162,1,0,0:0:0:0:
256,192,79270,1,8,0:0:0:0:
256,192,79378,1,8,0:0:0:0:
256,192,79486,1,0,0:0:0:0:
256,192,79594,1,8,0:0:0:0:
256,192,79810,1,0,0:0:0:0:
256,192,80026,1,8,0:0:0:0:
256,192,80133,1,8,0:0:0:0:
256,192,80241,1,0,0:0:0:0:
256,192,80457,1,8,0:0:0:0:
256,192,80673,1,0,0:0:0:0:
256,192,80781,1,0,0:0:0:0:
256,192,80889,1,0,0:0:0:0:
256,192,81105,1,12,0:0:0:0:
256,192,81536,1,0,0:0:0:0:
256,192,81752,1,8,0:0:0:0:
256,192,81860,1,0,0:0:0:0:
256,192,81968,1,8,0:0:0:0:
256,192,82076,1,8,0:0:0:0:
256,192,82184,1,0,0:0:0:0:
256,192,82400,1,0,0:0:0:0:
256,192,82615,1,0,0:0:0:0:
256,192,82723,1,8,0:0:0:0:
256,192,82831,1,0,0:0:0:0:
256,192,82939,1,8,0:0:0:0:
256,192,83047,1,0,0:0:0:0:
256,192,83263,1,0,0:0:0:0:
256,192,83479,1,8,0:0:0:0:
256,192,83587,1,8,0:0:0:0:
256,192,83695,1,0,0:0:0:0:
256,192,83910,1,8,0:0:0:0:
256,192,84126,1,8,0:0:0:0:
256,192,84234,1,8,0:0:0:0:
256,192,84342,1,8,0:0:0:0:
256,192,84558,1,8,0:0:0:0:
256,192,84990,1,4,0:0:0:0:
256,192,86716,1,12,0:0:0:0:
256,192,87040,1,4,0:0:0:0:
256,192,87364,1,4,0:0:0:0:
256,192,87579,1,12,0:0:0:0:
256,192,88011,1,8,0:0:0:0:
256,192,88065,1,8,0:0:0:0:
256,192,88119,1,8,0:0:0:0:
256,192,88173,1,8,0:0:0:0:
256,192,88227,1,8,0:0:0:0:
